Download & Watch Zanjeer (2013) 1GB DVDscr
Zanjeer (2013)
Added On : 19th September, 2013.
Genre : Uncategorized.
Movie Viewed : 442 times.
Zanjeer (2013) 1GB DVDscr

Summary - Zanjeer (2013)

That recognized remake of Amitabh Bachchan’s 1973 struck Zanjeer. Vijay is an accomplished brutally open police officer who has been moved so far once more of the process for the chasing after the corrupt underworld goons. He’s in charge of the best circumstances where the secret attention witness, Mala, has observed any murder by Teja’s Gang and declines in order to co-manage. Teja are all mind of a oil mafia procedure as well as does not like Ria alive. Vijay handles in order to encourage Ria towards provide a argument making the lady perpetrators arrived once her. All movie revolves across Vijay’s challenge up against the setup, their fight towards his interior demons and chase when Teja.

Source: IMDB.com, Rottentomatoes.com

Zanjeer (2013) 1GB DVDscr

Download

Format : AVI
Format/Info : Audio Video Interleave
File size : 1 024 MiB
Duration : 2h 15mn
Overall bit rate : 1 060 Kbps
Writing application : VirtualDubMod 1.5.10.2 (build 2542/release)
Writing library : VirtualDubMod build 2542/release

Video
ID : 0
Format : MPEG-4 Visual
Format profile : Advanced Simple@L5
Format settings, BVOP : 2
Format settings, QPel : Yes
Format settings, GMC : No warppoints
Format settings, Matrix : Default (MPEG)
Codec ID : XVID
Codec ID/Hint : XviD
Duration : 2h 15mn
Bit rate : 858 Kbps
Width : 640 pixels
Height : 272 pixels
Display aspect ratio : 2.35:1
Frame rate : 23.976 fps
Color space : YUV
Chroma subsampling : 4:2:0
Bit depth : 8 bits
Scan type : Progressive
Compression mode : Lossy
Bits/(Pixel*Frame) : 0.206
Stream size : 829 MiB (81%)
Writing library : XviD 1.2.1 (UTC 2008-12-04)

Audio
ID : 1
Format : AC-3
Format/Info : Audio Coding 3
Mode extension : CM (complete main)
Codec ID : 2000
Duration : 2h 15mn
Bit rate mode : Constant
Bit rate : 192 Kbps
Channel(s) : 6 channels
Channel positions : Front: L C R, Side: L R, LFE
Sampling rate : 48.0 KHz
Bit depth : 16 bits
Compression mode : Lossy
Stream size : 185 MiB (18%)
Alignment : Split accross interleaves
Interleave, duration : 42 ms (1.00 video frame)
Interleave, preload duration : 500 ms

Click here to full view.
Download Zanjeer (2013) 1GB DVDscr
Click here to full view.
Download Zanjeer (2013) 1GB DVDscr
Click here to full view.
Download Zanjeer (2013) 1GB DVDscr
Note - The server links usually have a short period of life. They may expire after some time.

rapidgator

http://rapidgator.net/file/ec03b92d1e6e712f80311c98122c156b/Zanjeer.2013.1GB.XViD.AC3-ExD-XMR.avi.html

extabit

http://extabit.com/file/2dudp9r4npw7h/Zanjeer.2013.1GB.XViD.AC3-ExD-XMR.avi