Download & Watch Free Birds (2013) RUSS-3DCAM H264 MP3 AVi
Free Birds (2013)
Added On : 11th November, 2013.
Genre : Animation, Comedy.
Movie Viewed : 514 times.
Free Birds (2013) RUSS-3DCAM H264 MP3 AVi

Summary - Free Birds (2013)

Inside irreverent, hilarious, daring buddy humor, directed simply by Jimmy Hayward (Horton Hears a Who!), couple turkeys from other side of the tracks must put aside their variations as well as staff around trips straight back in time to change will span of background – plus have turkey from the holiday menu to ideal.

Source: IMDB.com, Rottentomatoes.com

Free Birds (2013) RUSS-3DCAM H264 MP3 AVi

Download

Format : AVI
Format/Info : Audio Video Interleave
Format profile : OpenDML
File size : 1.06 GiB
Duration : 1h 20mn
Overall bit rate : 1 866 Kbps
Writing library : Lavf53.24.2

Video
ID : 0
Format : AVC
Format/Info : Advanced Video Codec
Format profile : Baseline@L3.0
Format settings, CABAC : No
Format settings, ReFrames : 1 frame
Codec ID : H264
Duration : 1h 20mn
Bit rate : 1 720 Kbps
Width : 720 pixels
Height : 304 pixels
Display aspect ratio : 2.35:1
Frame rate mode : Variable
Frame rate : 25.000 fps
Color space : YUV
Chroma subsampling : 4:2:0
Bit depth : 8 bits
Scan type : Progressive
Bits/(Pixel*Frame) : 0.314
Stream size : 997 MiB (92%)
Writing library : x264 core

Audio ; russian
ID : 1
Format : MPEG Audio
Format version : Version 1
Format profile : Layer 3
Mode : Joint stereo
Mode extension : MS Stereo
Codec ID : 55
Codec ID/Hint : MP3
Duration : 1h 20mn
Bit rate mode : Constant
Bit rate : 128 Kbps
Channel count : 2 channels
Sampling rate : 44.1 KHz
Compression mode : Lossy
Stream size : 74.1 MiB (7%)
Alignment : Aligned on interleaves
Interleave, duration : 26 ms (0.65 video frame)
Writing library : LAME3.98.4

Click here to full view.
Download Free Birds (2013) RUSS-3DCAM H264 MP3 AVi
Note - The server links usually have a short period of life. They may expire after some time.

rapidgator

http://rapidgator.net/file/3244724a09c5f790ff83275e3ea464be/free.part1.rar.html http://rapidgator.net/file/2d8ba30e24342fc33ab0a715ce8ecd4f/free.part2.rar.html

uploaded

http://uploaded.net/file/u1g2vmb8 http://uploaded.net/file/lmx39ds4