Download & Watch Download Accepted (2006) Free Movie
Accepted (2006)
Added On : 27th September, 2013.
Genre : Comedy.
Movie Viewed : 201 times.
Download Accepted (2006) Free Movie

Summary - Accepted (2006)

Whenever body weight out of getting rejected starts to occur shortly after staying refused access to each and every college or university he’s got used on, a higher class burnout tries to placate their mom and dad plus victory the center of his or her dream girl through scheming together with his family and friends to generate a bogus college in the hilarious humor of manmade degree directed through Steve Pink furthermore featuring Justin lengthy. Bartleby “B” Gaines (longer) actually school older whoever block smarts really will never seemed to read into the class, and also as their dreadful fortune crazy needs leftover him pining for the unattainable Monica (Blake attractive). Whenever Bartleby with his fantastic rebellious staff involving outcasts discover the recurring university rejection letters they offer just about all come acquiring delivering never-ending suffering using their let down folks, these people before long group coupled to produce ones fictional Southern Harmon initiate with development. After making a plausible façade for an left behind psychiatric hospital, engaging the talents involving tight buddy’s splendidly subversive kinsman (Lewis black colored) on present since the dean, to creating a phony site in order to really sell the school with their mothers, Bartleby then contacts before long realize that all their work needs paid in many ways compared to what folks in no way thought. Having type of college denies trying to sign up around courses during the ersatz university along with the disbelief of most privileged pupils coming from a local college or university painting bad awareness of all Southern Harmon start associated with system, Bartleby plus friends get a hold of specific ruse growing more and more tricky to uphold.

Source: IMDB.com, Rottentomatoes.com

Download Accepted (2006) Free Movie

Download

General
Complete name : Accepted.2006.iNTERNAL.REPACK.DVDRip.XviD-FaiLEDfailed.accepted.dvdrip.xvid.repack.avi
Format : AVI
Format/Info : Audio Video Interleave
Format profile : OpenDML
Format settings : rec
File size : 697 MiB
Duration : 1h 33mn
Overall bit rate mode : Variable
Overall bit rate : 1 047 Kbps
Writing application : AVI-Mux GUI 1.17.8.3, Feb 16 201019:42:50
Video
ID : 0
Format : MPEG-4 Visual
Format profile : Advanced Simple@L5
Format settings, BVOP : 2
Format settings, QPel : No
Format settings, GMC : No warppoints
Format settings, Matrix : Default (H.263)
Codec ID : XVID
Codec ID/Hint : XviD
Duration : 1h 33mn
Bit rate : 900 Kbps
Width : 640 pixels
Height : 272 pixels
Display aspect ratio : 2.35:1
Frame rate : 23.976 fps
Color space : YUV
Chroma subsampling : 4:2:0
Bit depth : 8 bits
Scan type : Progressive
Compression mode : Lossy
Bits/(Pixel*Frame) : 0.216
Stream size : 599 MiB (86%)
Writing library : XviD 1.2.1 (UTC 2008-12-04)
Audio
ID : 1
Format : MPEG Audio
Format version : Version 1
Format profile : Layer 3
Mode : Joint stereo
Mode extension : MS Stereo
Codec ID : 55
Codec ID/Hint : MP3
Duration : 1h 33mn
Bit rate mode : Variable
Bit rate : 139 Kbps
Nominal bit rate : 160 Kbps
Channel(s) : 2 channels
Sampling rate : 48.0 KHz
Compression mode : Lossy
Stream size : 92.3 MiB (13%)
Alignment : Aligned on interleaves
Interleave, duration : 24 ms (0.58 video frame)
Interleave, preload duration : 60 ms
Title : Accepted T80 3_2ch 448Kbps DELAY 0ms
Writing library : LAME3.99r
Encoding settings : -m j -V 4 -q 2 -lowpass 17.5 --abr 160

Click here to full view.
Download Download Accepted (2006) Free Movie
Note - The server links usually have a short period of life. They may expire after some time.

uploaded

http://uploaded.net/file/dzyil0cn

rapidgator

http://rapidgator.net/file/114b69cd96661e3ca2b5f93cac5f2adc/Accepted.2006.iNTERNAL.REPACK.DVDRip.XviD.FaiLED.rar.html