After Earth (2013) Download Free Movie
After Earth (2013)
Added On : 22nd July, 2013.
Genre : Action, Adventure.
Movie Viewed : 8795 times.
After Earth (2013) CAM NEW SOURCE [400MB=1L]

Summary - After Earth (2013)

Hundreds of years ago mankind discontinued the World as there was a problem which created it difficult to stay on it. They analyzed area and discovered a new home – planet known as Nova Prime. Once a spacecraft piloted by common Cypher Raige and his 13-year-old son Kitai wrecks and they find themselves on the Earth, unidentified and complete of dangers. While the dad is relaxing injured among flinders, the son has to discover the unknown area to be able to signal for help. M. Night Shyamalan is the director of the movie. The screenplay of the movie written by Stephen Gaghan and M. Night Shyamalan. The main star cast of the movie are Will Smith, Jaden Smith, Isabelle Fuhrman, Zoë Kravitz and Sophie Okonedo. Here you can download 2013 movies free and also download After Earth full movie with high quality resolution print. Father and son must understand to perform together and believe in one another if they want any possibility of returning home.

Source: IMDB.com, Rottentomatoes.com

After Earth (2013) CAM NEW SOURCE [400MB=1L]

Download

Video
ID : 1
Format : AVC
Format/Info : Advanced Video Codec
Format profile : Main@L3.0
Format settings, CABAC : Yes
Format settings, ReFrames : 1 frame
Codec ID : X264
Codec ID/Info : XiWave GNU GPL x264 MPEG-4
Duration : 1h 33mn
Bit rate : 1 102 Kbps
Width : 640 pixels
Height : 272 pixels
Display aspect ratio : 2.35:1
Frame rate : 30.000 fps
Color space : YUV
Chroma subsampling : 4:2:0
Bit depth : 8 bits
Scan type : Progressive
Bits/(Pixel*Frame) : 0.211
Stream size : 738 MiB (89%)

Audio
ID : 0
Format : MPEG Audio
Format version : Version 1
Format profile : Layer 3
Mode : Joint stereo
Mode extension : MS Stereo
Codec ID : 55
Codec ID/Hint : MP3
Duration : 1h 33mn
Bit rate mode : Constant
Bit rate : 128 Kbps
Channel(s) : 2 channels
Sampling rate : 44.1 KHz
Compression mode : Lossy
Stream size : 85.7 MiB (10%)
Alignment : Split accross interleaves

Click here to full view.
Download After Earth (2013) CAM NEW SOURCE [400MB=1L]
Note - The server links usually have a short period of life. They may expire after some time.

putlocker

http://www.keeplinks.me/d/dxdqzmc3

billionuploads

http://www.keeplinks.me/d/mnntagth

rapidgator

http://www.keeplinks.me/d/nhk4bwno

uploaded

http://www.keeplinks.me/d/nhhwnwd3

bitshare

http://www.keeplinks.me/d/n3awngjq